Hugo 2011 MOVIE EngLish

Hugo 2011 MOVIE EngLish

Total size: 911.20 Mb
Removed by the request of copyright owner

  • Category
  • Added
    on 2011-11-25 13:27:31
  • Hash
Hugo (2011) MOVIE EngLish

Format                           : AVI
Format/Info                      : Audio Video Interleave
Format profile                   : OpenDML
File size                        : 1.47 GiB
Duration                         : 1h 37mn
Overall bit rate                 : 2 151 Kbps
Writing application              : VirtualDubMod (build 2542/release)
Writing library                  : VirtualDubMod build 2542/release
Original source form             : MAX TORRENTZ
Copyright                        : SIGISMUNT

ID                               : 0
Format                           : MPEG-4 Visual
Format profile                   : AdvancedSimple@L5
Format settings, BVOP            : Yes
Format settings, QPel            : No
Format settings, GMC             : No warppoints
Format settings, Matrix          : Custom
Codec ID                         : XVID
Codec ID/Hint                    : XviD
Duration                         : 1h 37mn
Bit rate                         : 1 950 Kbps
Width                            : 672 pixels
Height                           : 288 pixels
Display aspect ratio             : 2.35:1
Frame rate                       : 29.970 fps
Resolution                       : 24 bits
Colorimetry                      : 4:2:0
Scan type                        : Progressive
Bits/(Pixel*Frame)               : 0.336
Stream size                      : 1.33 GiB (91%)
Writing library                  : XviD 1.2.1 (UTC 2008-12-04)

ID                               : 1
Format                           : MPEG Audio
Format version                   : Version 1
Format profile                   : Layer 3
Codec ID                         : 55
Codec ID/Hint                    : MP3
Duration                         : 1h 37mn
Bit rate mode                    : Constant
Bit rate                         : 192 Kbps
Channel(s)                       : 2 channels
Sampling rate                    : 48.0 KHz
Resolution                       : 16 bits
Stream size                      : 134 MiB (9%)
Alignment                        : Aligned on interleaves
Interleave, duration             : 24 ms (0.72 video frame)
Interleave, preload duration     : 192 ms

Source: DVDRip (perfect a/v/sync quality-original source resynced,sample included)
This torrent is not seedbox supported,please seed it to the MAX

Uploader Note: Same as immortals today released dvdrip video is little
grainy but is more than watchable-similar to a classic dvdrip encode,see sample
and download it like this if you don't want to wait about 1 month more for another
sources like hd bluray/etc

Note:If you have something to offer as early releases,seedboxes,links,accounts,etc
please contact us on piratepedia[@]msn/ or our website torentz 3xforum ro

Hugo (2011) MOVIE EngLish Torrent Free Download

How To Get Your Maxspeed (uTorrent)

Torrent Client - Preferences - Bandwidth - Number of connections - Set aprox. 500 for each 
Torrent Client - Preferences - BiTorrent - Protocol Encryption - Forced
Bandwidth Allocation - High (Set download/upload limit - Unlimited)
Stop Other Active Torrents - Start downloading and wait for connections.
Enjoy and Seed for at least 1:1 ratio. Don't forget to say thanks/leave reviews.
Before downloading you should check/google search sample "release name""sample".
Greets to all actual/future p2p/scene QUALITY groups and affiliate websites.
Don't trust IMDb robot or bad ratings,always watch some trailers first.
Ignore stupid comments/fake/mislabeled/no-DVDrips/CAM/TS/RAR uploads.
Please spread this release/torrent to your friends/forums/etc.
If you need translation subs visit some subtitles sites.
Report if you see online streaming or other spam links.
Recommended movie player VLC PLAYER.
Hugo (2011) MOVIE EngLish/Hugo (2011) MOVIE EngLish.avi911.06 Mb
Hugo (2011) MOVIE EngLish/MOVIE.nfo4.74 Kb
Hugo (2011) MOVIE EngLish/Subs[ENG].srt133.49 Kb
Hugo (2011) MOVIE EngLish/Torrent downloaded from b
Hugo (2011) MOVIE EngLish/Torrent downloaded from b
Hugo (2011) MOVIE EngLish/Torrent downloaded from b
Hugo (2011) MOVIE EngLish/Torrent downloaded from b

Trackers not found

Search for full movies Hugo 2011 BRRip 480p x264 Dual Audio HinDi EnG CrystalTorrentS CT, related to Hugo 2011 BRRip 480p x264 Dual Audio HinDi EnG CrystalTorrentS CT