The Hunger Games 2012 R5 XVID WBZ torrent

Total size: 1,007.99 Mb
Removed by the request of copyright owner

  • Category
  • Added
    on 2012-03-25 22:21:31
  • Hash
    17693c44ef8ef7a8abd9833cd3c1462a66748556
                           --latest--

                          100% working

|||/
          .-.________          (o o)             ________.-.
     ----/ _)_______)  +-oooO--(_)-----------+ (_______(_/ ----
        (    ()___)     |Please seed after    |    (___()    )
             ()__)      |                     |     (__()
     ----___()_)       |     download        |      (_()___/----
                        +------------Ooo------+		



The Hunger Games (2012) R5 XVID-WBZ.torrent

Format                           : AVI
Format/Info                      : Audio Video Interleave
Format profile                   : OpenDML
File size                        : 1.31 GiB
Duration                         : 1h 50mn
Overall bit rate                 : 1 698 Kbps
Writing application              : VirtualDubMod 1.5.10.2 (build 2542/release)
Writing library                  : VirtualDubMod build 2542/release
Original source form             : MAX TORRENTZ
Copyright                        : SIGISMUNT

Video
ID                               : 0
Format                           : MPEG-4 Visual
Format profile                   : AdvancedSimple@L5
Format settings, BVOP            : Yes
Format settings, QPel            : No
Format settings, GMC             : No warppoints
Format settings, Matrix          : Default (H.263)
Codec ID                         : XVID
Codec ID/Hint                    : XviD
Duration                         : 1h 50mn
Bit rate                         : 1 245 Kbps
Width                            : 720 pixels
Height                           : 384 pixels
Display aspect ratio             : 1.875
Frame rate                       : 23.976 fps
Resolution                       : 24 bits
Colorimetry                      : 4:2:0
Scan type                        : Progressive
Bits/(Pixel*Frame)               : 0.188
Stream size                      : 983 MiB (73%)
Writing library                  : XviD 1.2.1 (UTC 2008-12-04)

Audio
ID                               : 1
Format                           : AC-3
Format/Info                      : Audio Coding 3
Codec ID                         : 2000
Duration                         : 1h 50mn
Bit rate mode                    : Constant
Bit rate                         : 448 Kbps
Channel(s)                       : 6 channels
Channel positions                : Front: L C R, Surround: L R, LFE
Sampling rate                    : 48.0 KHz
Stream size                      : 354 MiB (26%)
Alignment                        : Aligned on interleaves
Interleave, duration             : 64 ms (1.53 video frames)
Interleave, preload duration     : 192 ms
 
http://www.imdb.com/title/tt1392170/

Source: DVD (perfect a/v/sync quality,sample included)
This torrent is not seedbox supported,please seed it to the MAX

Note: We need anything you can offer as early releases,seedboxes,links,accounts,etc
please contact us on piratepedia[@]msn/gmail.com or our website torentz 3xforum ro

The Hunger Games (2012) R5 XVID-WBZ.torrent Torrent Free download
 

How To Get Your Maxspeed (uTorrent)

Torrent Client - Preferences - Bandwidth - Number of connections - Set aprox. 500 for each 
Torrent Client - Preferences - BiTorrent - Protocol Encryption - Forced
Bandwidth Allocation - High (Set download/upload limit - Unlimited)
Stop Other Active Torrents - Start downloading and wait for connections.
Enjoy and Seed for at least 1:1 ratio. Don't forget to say thanks/leave reviews.
Before downloading you should check/google search sample "release name""sample".
Greets to all actual/future p2p/scene QUALITY groups and affiliate websites.
Don't trust IMDb robot or bad ratings,always watch some trailers first.
Ignore stupid comments/fake/mislabeled/no-DVDrips/CAM/TS/RAR uploads.
Please spread this release/torrent to your friends/forums/etc.
If you need translation subs visit some subtitles sites.
Report if you see online streaming or other spam links.
Recommended movie player VLC PLAYER.



                          ---EnjOy Watching Movie--- 
FileSize
The Hunger Games (2012) R5 XVID-WBZ/MOVIE.nfo4.74 Kb
The Hunger Games (2012) R5 XVID-WBZ/Subs[ENG].srt133.49 Kb
The Hunger Games (2012) R5 XVID-WBZ/The Hunger Games (2012) R5 XVID-WBZ.avi1,007.86 Mb
The Hunger Games (2012) R5 XVID-WBZ/Torrent downloaded from Rarbg.com.txt22.00 b
The Hunger Games (2012) R5 XVID-WBZ/Torrent_downloaded_from_Extratorrent_Com.txt42.00 b

Trackers not found

Search for full movies The Hunger Games Catching Fire 2013 IMAX EDITION 1080p BluRay x264 PublicHD mkv, related to The Hunger Games Catching Fire 2013 IMAX EDITION 1080p BluRay x264 PublicHD mkv