Dexter S07E11 Do You See What I See HD TV x264 EVOLVE eztv

Total size: 367.43 Mb
Removed by the request of copyright owner

-------------------------------------------------------------------
Please share....Dont hit and run...Seed it back at least once.

Of course, if you want to seed it back more than once, that would be ok too :)
-------------------------------------------------------------------	

QUALITY:  PERFECT 10/10

All details are here: 

Format  | AVI           Language | ENGLISH  
Source  | DVD PAL       Subs     | NONE 

QUALITY:  PERFECT 10/10

- Video
ID                               : 0
Format                           : MPEG-4 Visual
Format profile                   : Advanced Simple@L5
Format settings, BVOP            : Yes
Format settings, QPel            : No
Format settings, GMC             : No warppoints
Format settings, Matrix          : Default (H.263)
Muxing mode                      : Packed bitstream
Codec ID                         : XVID
Codec ID/Hint                    : XviD
Bit rate                         : 1 345 Kbps
Width                            : 720 pixels
Height                           : 314 pixels
Display aspect ratio             : 2.25:1
Frame rate                       : 29.970 fps
Color space                      : YUV
Chroma subsampling               : 4:2:0
Bit depth                        : 8 bits
Scan type                        : Progressive
Compression mode                 : Lossy
Bits/(Pixel*Frame)               : 0.198
Stream size                      : 1.19 GiB (87%)
Writing library                  : XviD 1.1.0 (UTC 2005-11-22)

- Audio
ID                               : 1
Format                           : AC-3
Format/Info                      : Audio Coding 3
Mode extension                   : CM (complete main)
Codec ID                         : 2000
Bit rate mode                    : Constant
Bit rate                         : 192 Kbps
Channel(s)                       : 2 channels
Channel positions                : Front: L R
Sampling rate                    : 48.0 KHz
Bit depth                        : 16 bits
Compression mode                 : Lossy
Stream size                      : 175 MiB (12%)
Alignment                        : Aligned on interleaves
Interleave, duration             : 33 ms (1.00 video frame)
Interleave, preload duration     : 512 ms-------------------------------------Torrent downloaded from http://thepiratebay.se
FileSize
Dexter S07E11 Do You See What I See HD TV x264 -EVOLVE [eztv].rar367.43 Mb
TrackerSeedsLeechsDownloaded
http://tracker.openbittorrent.com:80000
http://fr33dom.h33t.com:3310/scrape2052
http://tracker.publicbt.com:80000
http://tracker.thepiratebay.org/scrape000
http://tracker.ccc.de:80000
http://tracker.istole.it:80000
Search for full other Dexter 001 005 Dexter Down Under 001 005 2013 2014 Digital Zone Empire Galan777, related to Dexter 001 005 Dexter Down Under 001 005 2013 2014 Digital Zone Empire Galan777