The Hunger Games Catching Fire 2013 R6 HDCAM XviD AC3 TiTAN

Total size: 1.80 Gb
Removed by the request of copyright owner

  • Category
  • Added
    on 2013-12-04 16:08:03
  • Hash
    5b9d3f5c05d392b2eccb31189b4afbd670bc959d
The Hunger Games Catching Fire 2013 R6 HDCAM XviD AC3 TiTAN
===========================================================
Source SMY Thanks
General
Format                                   : AVI
Format/Info                              : Audio Video Interleave
File size                                : 1.80 GiB
Duration                                 : 2h 12mn
Overall bit rate                         : 1 947 Kbps
Video
ID                                       : 0
Format                                   : MPEG-4 Visual
Format profile                           : Advanced Simple@L5
Format settings, BVOP                    : 1
Format settings, QPel                    : No
Format settings, GMC                     : No warppoints
Format settings, Matrix                  : Default (H.263)
Muxing mode                              : Packed bitstream
Codec ID                                 : XVID
Codec ID/Hint                            : XviD
Duration                                 : 2h 12mn
Bit rate                                 : 1 746 Kbps
Width                                    : 720 pixels
Height                                   : 286 pixels
Display aspect ratio                     : 2.517
Frame rate                               : 29.970 fps
Color space                              : YUV
Chroma subsampling                       : 4:2:0
Bit depth                                : 8 bits
Scan type                                : Progressive
Compression mode                         : Lossy
Bits/(Pixel*Frame)                       : 0.283
Stream size                              : 1.61 GiB (90%)
Writing library                          : XviD 1.2.1 (UTC 2008-12-04)
Audio
ID                                       : 1
Format                                   : AC-3
Format/Info                              : Audio Coding 3
Mode extension                           : CM (complete main)
Format settings, Endianness              : Big
Codec ID                                 : 2000
Duration                                 : 2h 12mn
Bit rate mode                            : Constant
Bit rate                                 : 192 Kbps
Channel(s)                               : 2 channels
Channel positions                        : Front: L R
Sampling rate                            : 48.0 KHz
Bit depth                                : 16 bits
Compression mode                         : Lossy
Stream size                              : 182 MiB (10%)
Alignment                                : Aligned on interleaves
Interleave, duration                     : 64 ms (1.92 video frames)
Interleave, preload duration             : 192 ms
FileSize
The Hunger Games Catching Fire 2013 R6 HDCAM XviD AC3 TiTAN/The Hunger Games 2013 R6 HDCAM XviD AC3 TiTAN.avi1.80 Gb
The Hunger Games Catching Fire 2013 R6 HDCAM XviD AC3 TiTAN/Seeded using SeedMyBox.com.txt1.31 Kb
The Hunger Games Catching Fire 2013 R6 HDCAM XviD AC3 TiTAN/Torrent downloaded from ExtraTorrent.cc.txt330.00 b
TrackerSeedsLeechsDownloaded
udp://9.rarbg.com:2710/scrape523429
http://fr33dom.h33t.com:3310/scrape000
http://94.228.192.98/scrape1011575
http://coppersurfer.tk:6969/scrape000
http://121.14.98.151:9090/scrape101650
Search for full movies The Hunger Games Catching Fire 2013 IMAX EDITION 720p BluRay x264 PHD mkv, related to The Hunger Games Catching Fire 2013 IMAX EDITION 720p BluRay x264 PHD mkv