Ice Age Continental Drift 2012 Hindi DVDRip Mastitorrents

Ice Age Continental Drift 2012 Hindi DVDRip Mastitorrents

Total size: 846.99 Mb
Removed by the request of copyright owner

Ice Age: Continental Drift (2012)

Format                           : AVI
Format/Info                      : Audio Video Interleave
Format profile                   : OpenDML
File size                        : 846 MiB
Duration                         : 1h 49mn
Overall bit rate                 : 1 714 Kbps
Writing application              : VirtualDubMod 1.5.10.2 (build 2542/release)
Writing library                  : VirtualDubMod build 2542/release
Original source form             : MAX TORRENTZ

Video
ID                               : 0
Format                           : MPEG-4 Visual
Format profile                   : [email protected]
Format settings, BVOP            : Yes
Format settings, QPel            : No
Format settings, GMC             : No warppoints
Format settings, Matrix          : Default (H.263)
Codec ID                         : XVID
Codec ID/Hint                    : XviD
Duration                         : 1h 49mn
Bit rate                         : 1 325 Kbps
Width                            : 640 pixels
Height                           : 272 pixels
Display aspect ratio             : 2.35:1
Frame rate                       : 23.976 fps
Resolution                       : 24 bits
Colorimetry                      : 4:2:0
Scan type                        : Progressive
Bits/(Pixel*Frame)               : 0.318
Stream size                      : 846 MiB (77%)
Writing library                  : XviD 61

Audio
ID                               : 1
Format                           : AC-3
Format/Info                      : Audio Coding 3
Codec ID                         : 2000
Duration                         : 1h 49mn
Bit rate mode                    : Constant
Bit rate                         : 384 Kbps
Channel(s)                       : 6 channels
Channel positions                : Front: L C R, Surround: L R, LFE
Sampling rate                    : 48.0 KHz
Stream size                      : 147 MiB (22%)
Alignment                        : Aligned on interleaves
Interleave, duration             : 64 ms (1.54 video frames)
Interleave, preload duration     : 192 ms


http://www.imdb.com/title/tt1667889/


Source: DVD (perfect a/v/sync quality+filtered audio with additional 400% volume , 

sample is included)

How To Get Your Maxspeed (uTorrent)

Torrent Client - Preferences - Bandwidth - Number of connections - Set aprox. 500 for 

each 
Torrent Client - Preferences - BiTorrent - Protocol Encryption - Forced
Bandwidth Allocation - High (Set download/upload limit - Unlimited)
Stop Other Active Torrents - Start downloading and wait for connections.
Enjoy and Seed for at least 1:1 ratio. Don't forget to say thanks/leave reviews.
Before downloading you should check/google search sample "release name""sample".
Greets to all actual/future p2p/scene QUALITY groups and affiliate websites.
Don't trust IMDb robot or bad ratings,always watch some trailers first.
Ignore stupid comments/fake/mislabeled/no-DVDrips/CAM/TS/RAR uploads.
Please spread this release/torrent to your friends/forums/etc.
If you need translation subs visit some subtitles sites.
Report if you see online streaming or other spam links.
Recommended movie player VLC PLAYER.

FileSize
Ice Age Continental Drift (2012) Hindi [email protected]/Ice Age Continental Drift (2012) Hindi [email protected]846.86 Mb
Ice Age Continental Drift (2012) Hindi [email protected]/Subs[ENG].srt133.49 Kb
Ice Age Continental Drift (2012) Hindi [email protected]/Torrent downloaded from Extratorrent.com.txt43.00 b
Ice Age Continental Drift (2012) Hindi [email protected]/Torrent downloaded from h33t.com.txt35.00 b
Ice Age Continental Drift (2012) Hindi [email protected]/Torrent downloaded from www.KAT.ph.txt41.00 b
Ice Age Continental Drift (2012) Hindi [email protected]/release.nfo4.74 Kb
TrackerSeedsLeechsDownloaded
udp://tracker.istole.it:80/scrape000
udp://tracker.openbittorrent.com:80/scrape000
udp://tracker.publicbt.com:80/scrape100
http://fr33dom.h33t.com:3310/scrape000
http://www.h33t.com:3310/scrape000
http://inferno.demonoid.com:3389/scrape000
http://bigtorrent.org:2710/scrape000
http://tracker.torrentbay.to:6969/scrape000
http://bttrack.9you.com/:8080/scrape000
http://exodus.desync.com:6969/scrape000
http://exodus.desync.com/scrape000
http://9.rarbg.com:2710/scrape000
http://tracker.coppersurfer.tk:6969/scrape000
http://pow7.com/scrape000
http://10.rarbg.com/scrape000
Search for full movies ICE AGE CONTINENTAL DRIFT 2012 720x480 DVD RIP RAM, related to ICE AGE CONTINENTAL DRIFT 2012 720x480 DVD RIP RAM